MoviesVideos

The Minds Eye 2015 Movie Mp4 Download (Hollywood Movie)

Click Here To Join Our Whatsapp Group To Receive Updates🔔

Rate this post

The Minds Eye 2015Download Movie for mobile in best quality 3gp,Mkv, and mp4 720p, 1080p,2k and 4k format. Also stream The Minds Eye on your mobile, tablets and ipads.

READ
Monster The Prehistoric Project 2016 Movie Mp4 Download (Hollywood Movie)

Runtime: 87 mins
Release Date: 05 Aug 2016
Starcast: Graham Skipper, Lauren Ashley Carter, John Speredakos
Director(s): Joe Begos
Genre: Action, Horror, Sci-Fi,
IMDb: http://www.imdb.com/title/tt4567486/

The Minds Eye Free Movie Download HD . Zack Connors and Rachel Meadows were conceived with amazing psychokinetic abilities. At the point when expression of their heavenly gifts gets out, they get themselves the detainees of Michael Slovak, an unsettled specialist expectation on reaping their forces. After a challenging departure, they are free from his vile organization, however the degenerate specialist will persevere relentlessly to track them down with the goal that he may keep on siphoning their presents for his own use.I liked Joe Begos before return to the abhorrences of the eighties Almost Human (2013) yet this one wasn’t generally my measure of cake. For me the story was somewhat frail however once more. The Minds Eye Free Movie Download HD

The Minds Eye Free Movie Download HD  The executive Begos made a tribute to those primes in the eighties of psychokinetic flicks like Scanners (1981) and the thought little of Bells (1982) still inaccessible on any configuration, just VHS.What I liked was the impacts utilized towards the end. In any case, you truly need to hold up until then since when the psyche is being deceived by an active one there aren’t any impacts, it’s recently the utilization of the eyes that reaches of the foe’s brain. Yet, toward the finish obviously they all are against each other and it’s there that the gut comes in. Gracious yes, I can even say that it’s ultra violent at a few focuses yet general it was quite recently above average for me. Possibly some scene’s took too long. All things considered, on the off chance that you experienced childhood in the eighties make sure to lift this up yet in the event. The Minds Eye Free Movie Download HD .

READ
Andron 2016 Movie Mp4 Download

Download The Minds Eye in 720p BluRay (647 MB)↓

Click the button below to download 📥

Download “The Minds Eye 2015”

Downloaded 0 times – 647 MB

https://jumiaweb.com/download/2124/?tmstv=1675242285

General
Complete name :The_Minds_Eye_BluRay_high.mp4
Format :MPEG-4
Format profile :Base Media
Codec ID :isom (isom/iso2/avc1/mp41)
File size :203 MiB
Duration :1 h 27 min
Overall bit rate :324 kb/s
Movie name :The.Minds.Eye.2015.1080p.BluRay.H264.AAC-RARBG
Writing application :Lavf57.20.100
Comment :The.Minds.Eye.2015.1080p.BluRay.H264.AAC-RARBG
READ
Landmine Goes Click 2015 Movie Mp4 Download
Video
ID :1
Format :AVC
Format/Info :Advanced Video Codec
Format profile :High@L2.1
Format settings :CABAC / 5 Ref Frames
Format settings, CABAC :Yes
Format settings, Reference frames :5 frames
Codec ID :avc1
Codec ID/Info :Advanced Video Coding
Duration :1 h 27 min
Bit rate :270 kb/s
Width :640 pixels
Height :268 pixels
Display aspect ratio :2.40:1
Frame rate mode :Constant
Frame rate :23.976 (23976/1000) FPS
Color space :YUV
Chroma subsampling :4:2:0
Bit depth :8 bits
Scan type :Progressive
Bits/(Pixel*Frame) :0.066
Stream size :169 MiB (83%)
Writing library :x264 core 148 r2 7599210
Encoding settings :cabac=1 / ref=5 / deblock=1:-1:-1 / analyse=0x3:0x113 / me=umh / subme=8 / psy=1 / psy_rd=1.00:0.15 / mixed_ref=1 / me_range=16 / chroma_me=1 / trellis=1 / 8x8dct=1 / cqm=0 / deadzone=21,11 / fast_pskip=1 / chroma_qp_offset=-3 / threads=8 / lookahead_threads=1 / sliced_threads=0 / nr=0 / decimate=1 / interlaced=0 / bluray_compat=0 / constrained_intra=0 / bframes=3 / b_pyramid=2 / b_adapt=2 / b_bias=0 / direct=3 / weightb=1 / open_gop=0 / weightp=2 / keyint=250 / keyint_min=23 / scenecut=40 / intra_refresh=0 / rc_lookahead=50 / rc=2pass / mbtree=1 / bitrate=270 / ratetol=1.0 / qcomp=0.60 / qpmin=0 / qpmax=69 / qpstep=4 / cplxblur=20.0 / qblur=0.5 / ip_ratio=1.40 / aq=1:1.00
Codec configuration box :avcC
Audio
ID :2
Format :AAC LC SBR
Format/Info :Advanced Audio Codec Low Complexity with Spectral Band Replication
Commercial name :HE-AAC
Format settings :NBC
Codec ID :mp4a-40-5
Duration :1 h 27 min
Bit rate mode :Constant
Bit rate :48.0 kb/s
Channel(s) :1 channel
Channel layout :C
Sampling rate :44.1 kHz
Frame rate :21.533 FPS (2048 SPF)
Compression mode :Lossy
Stream size :30.0 MiB (15%)
Language :English
Default :Yes
Alternate group :1
The Minds Eye 2015 Movie Mp4 Download (Hollywood Movie)

Related Articles