MoviesVideos

Download Pulp Fiction 1994 in 720p BluRay (Hollywood Movie)

Click Here To Join Our Whatsapp Group To Receive Updates🔔

Rate this post

Pulp Fiction (1994) – Download Movie for mobile in best quality 3gp and mp4 format. Also stream Pulp Fiction on your mobile, tablets and ipads

Plot: Jules Winnfield and Vincent Vega are two hitmen who are out to retrieve a suitcase stolen from their employer, mob boss Marsellus Wallace. Wallace has also asked Vincent to take his wife Mia out a few days later when Wallace himself will be out of town. Butch Coolidge is an aging boxer who is paid by Wallace to lose his next fight. The lives of these seemingly unrelated people are woven together comprising of a series of funny, bizarre and uncalled-for incidents.

File: Pulp_Fiction_BluRay_720p.mkv
File Size: 900 MB

Click the button below to download 📥

Download “Pulp Fiction 1994”

Downloaded 0 times – 1 GB

https://jumiaweb.com/download/1613/?tmstv=1674935233

Runtime: 154 mins
Release Date: 13 Oct 1994
Starcast: John Travolta, Samuel L. Jackson, Tim Roth, Amanda Plummer, Eric Stoltz, Bruce Willis, Ving Rhames, Phil LaMarr, Maria de Medeiros, Rosanna Arquette, Peter Greene, Uma Thurman, Duane Whitaker, Paul Calderon, Frank Whaley, Burr Steers, Bronagh Gallagher, Susan Griffiths, Steve Buscemi, Eric Clark, Joseph Pilato, Brad Blumenthal, Angela Jones, Don Blakely, Christopher Walken, Carl Allen, Stephen Hibbert, Julia Sweeney, Laura Lovelace, Michael Gilden, Jerome Patrick Hoban, Gary Shorelle, Lorelei Leslie, Brenda Hillhouse, Chandler Lindauer, Sy Sher, Robert Ruth, Rich Turner, Venessia Valentino, Alexis Arquette, Linda Kaye, Kathy Griffin, Quentin Tarantino, Harvey Keitel, Karen Maruyama, Lawrence Bender, Emil Sitka, Dick Miller, Cie Allman, Rene Beard, Lori Pizzo, Glendon Rich, Devan Richardson, Ani Sava,
Director(s): Francis Ford Coppola
Genre: Crime, Thriller
Tags: mafia, organized crime
IMDb: http://www.imdb.com/title/tt0110912/
Downloads: 137625.5
IMDb Rating: 8.9/10 (1627857 votes)

READ
Download The 13th Warrior 1999 in 720p BluRay (Hollywood Movie)
General
Complete name :Pulp_Fiction_BluRay_high.mp4
Format :MPEG-4
Format profile :Base Media
Codec ID :isom (isom/iso2/avc1/mp41)
File size :414 MiB
Duration :2 h 54 min
Overall bit rate :332 kb/s
Writing application :Lavf58.45.100
Video
ID :1
Format :AVC
Format/Info :Advanced Video Codec
Format profile :High@L2.2
Format settings :CABAC / 8 Ref Frames
Format settings, CABAC :Yes
Format settings, Reference frames :8 frames
Codec ID :avc1
Codec ID/Info :Advanced Video Coding
Duration :2 h 34 min
Bit rate :270 kb/s
Width :640 pixels
Height :272 pixels
Display aspect ratio :2.35:1
Frame rate mode :Constant
Frame rate :23.976 (24000/1001) FPS
Color space :YUV
Chroma subsampling :4:2:0
Bit depth :8 bits
Scan type :Progressive
Bits/(Pixel*Frame) :0.065
Stream size :298 MiB (72%)
Writing library :x264 core 148
Encoding settings :cabac=1 / ref=8 / deblock=1:-1:-1 / analyse=0x3:0x133 / me=umh / subme=9 / psy=1 / psy_rd=1.00:0.15 / mixed_ref=1 / me_range=16 / chroma_me=1 / trellis=2 / 8x8dct=1 / cqm=0 / deadzone=21,11 / fast_pskip=1 / chroma_qp_offset=-3 / threads=8 / lookahead_threads=1 / sliced_threads=0 / nr=0 / decimate=1 / interlaced=0 / bluray_compat=0 / constrained_intra=0 / bframes=3 / b_pyramid=2 / b_adapt=1 / b_bias=0 / direct=3 / weightb=1 / open_gop=0 / weightp=2 / keyint=250 / keyint_min=23 / scenecut=40 / intra_refresh=0 / rc_lookahead=40 / rc=2pass / mbtree=1 / bitrate=270 / ratetol=1.0 / qcomp=0.60 / qpmin=0 / qpmax=69 / qpstep=4 / cplxblur=20.0 / qblur=0.5 / ip_ratio=1.40 / aq=1:1.00
Menus :3
Codec configuration box :avcC
Audio
ID :2
Format :AAC LC
Format/Info :Advanced Audio Codec Low Complexity
Codec ID :mp4a-40-2
Duration :2 h 34 min
Bit rate mode :Constant
Bit rate :96.0 kb/s
Channel(s) :1 channel
Channel layout :C
Sampling rate :44.1 kHz
Frame rate :43.066 FPS (1024 SPF)
Compression mode :Lossy
Stream size :106 MiB (26%)
Language :English
Default :Yes
Alternate group :1
Menus :3

Related Articles