MoviesVideos

Monster The Prehistoric Project 2016 Movie Mp4 Download (Hollywood Movie)

Click Here To Join Our Whatsapp Group To Receive Updates🔔

Rate this post

Monster The Prehistoric Project 2016Download Movie for mobile in best quality 3gp,Mkv, and mp4 720p, 1080p,2k and 4k format. Also stream Monster The Prehistoric Project on your mobile, tablets and ipads.

Plot: A recovering drug addict takes a job with a documentary crew who plans to interview three subjects who claim to be real life monsters.
Runtime: 95 mins
Release Date: 18 Aug 2017
Starcast: Toby Hemingway, Justin Bruening, Murielle Zuker
Director(s): Victor Mathieu
Genre: Action, Horror,
IMDb: http://www.imdb.com/title/tt4537888/

Monster The Prehistoric Project Free Movie Download HD . Two Navy SEALS, Trevor and Doug, are sent to a deserted island looking for a bundle, however as opposed to being the seekers, they discover they are being chased. They discover a camera in the hands of a dead man, and they learn they are being stalked by a mammoth predator.American troopers in the Middle East battle with outsiders and radicals amid a mission into unfriendly region to concentrate four comrades. Two Navy SEALS, Trevor and Doug, are sent to a deserted island looking for a bundle, however as opposed to being the seekers, they discover they are being chased. Amid their escape they come .Two Navy SEALS are sent to a surrendered island to recover a bundle, yet as opposed to being the seekers, they discover they are being chased. Monster The Prehistoric Project Free Movie Download HD

READ
Bachchan Pandey 2022 Movie Mp4 Download (Latest Hindi Movie)

Monster The Prehistoric Project Free Movie Download HD  They discover a camera in the hands of a dead man, and they learn they are being stalked by a mammoth predator.American troopers in the Middle East battle with outsiders and radicals amid a mission into unfriendly region to concentrate four comrades. Here, the beasts are altogether coincidental to the story. Rather we are compelled to sit through 119 rebuffing minutes of what plays like an apartment reply to present day war movies. Two Navy SEALS, Trevor and Doug, are sent to a deserted island looking for a bundle, however as opposed to being the seekers, they discover they are being chased. Amid their escape they come .Two Navy SEALS are sent to a surrendered island to recover a bundle, yet as opposed to being the seekers, they discover they are being chased. Monster The Prehistoric Project Free Movie Download HD .

Download Monster The Prehistoric Project in 720p BluRay (603 MB)↓

Click the button below to download 📥

Download “Monster The Prehistoric Project 2016”

Downloaded 0 times – 603 MB

https://jumiaweb.com/download/2118/?tmstv=1674933076

General
Unique ID :9559640901818598057197862101416239891 (0x7311EAF9B39492C72B2DE6DB6716313)
Complete name :The_Monster_Project_BluRay_720p.mkv
Format :Matroska
Format version :Version 4
File size :669 MiB
Duration :1 h 38 min
Overall bit rate :945 kb/s
Movie name :The Monster Project 2017 BluRay 10Bit 1080p DD5.1 H265-d3g
Writing application :Lavf58.45.100
Writing library :Lavf58.45.100
ErrorDetectionType :Per level 1
Video
ID :1
Format :AVC
Format/Info :Advanced Video Codec
Format profile :High@L4
Format settings :CABAC / 8 Ref Frames
Format settings, CABAC :Yes
Format settings, Reference frames :8 frames
Codec ID :V_MPEG4/ISO/AVC
Duration :1 h 38 min
Bit rate :3 391 kb/s
Nominal bit rate :838 kb/s
Width :1 280 pixels
Height :720 pixels
Display aspect ratio :16:9
Frame rate mode :Variable
Frame rate :23.976 FPS
Color space :YUV
Chroma subsampling :4:2:0
Bit depth :8 bits
Scan type :Progressive
Bits/(Pixel*Frame) :0.153
Stream size :2.34 GiB
Writing library :x264 core 148
Encoding settings :cabac=1 / ref=8 / deblock=1:-1:-1 / analyse=0x3:0x133 / me=umh / subme=9 / psy=1 / psy_rd=1.00:0.15 / mixed_ref=1 / me_range=16 / chroma_me=1 / trellis=2 / 8x8dct=1 / cqm=0 / deadzone=21,11 / fast_pskip=1 / chroma_qp_offset=-3 / threads=22 / lookahead_threads=1 / sliced_threads=0 / nr=0 / decimate=1 / interlaced=0 / bluray_compat=0 / constrained_intra=0 / bframes=3 / b_pyramid=2 / b_adapt=1 / b_bias=0 / direct=3 / weightb=1 / open_gop=0 / weightp=2 / keyint=250 / keyint_min=23 / scenecut=40 / intra_refresh=0 / rc_lookahead=40 / rc=2pass / mbtree=1 / bitrate=838 / ratetol=1.0 / qcomp=0.60 / qpmin=0 / qpmax=69 / qpstep=4 / cplxblur=20.0 / qblur=0.5 / ip_ratio=1.40 / aq=1:1.00
Default :Yes
Forced :No
Audio
ID :2
Format :Opus
Codec ID :A_OPUS
Duration :1 h 38 min
Bit rate :448 kb/s
Channel(s) :2 channels
Channel layout :L R
Sampling rate :48.0 kHz
Frame rate :31.250 FPS (1536 SPF)
Bit depth :32 bits
Compression mode :Lossy
Stream size :317 MiB (47%)
Writing library :Lavc58.91.100 libopus
Language :English
Default :Yes
Forced :No
Monster The Prehistoric Project 2016 Movie Mp4 Download (Hollywood Movie)

Related Articles