MoviesVideos

Landmine Goes Click 2015 Movie Mp4 Download

Click Here To Join Our Whatsapp Group To Receive Updates🔔

Rate this post

Landmine Goes Click 2015Download Movie for mobile in best quality 3gp,Mkv, and mp4 720p, 1080p,2k and 4k format. Also stream Landmine Goes Click on your mobile, tablets and ipads.

  • Genre: Action | Crime
  • Quality: 720p
  • Size: 1.20G
  • Resolution: 1280×540 / 25.000 fpsfps
  • Language: Russian  
  • Run Time: 110
  • IMDB Rating: 6.4/10 
READ
Darkest Day 2015 Movie Mp4 Download

Landmine Goes Click Free Movie Download HD . Three American sightseers are intersection a devastated scene of European Georgia. One of them ventures on a furnished landmine. In any case, that is by all accounts a minor risk contrasted with the nightmarish happenings that the evening will bring on. A mental case exploits the visitor’s stability and mercilessly misuse and strikes the lady he loves.Don’t be tricked by the great surveys which have clearly been composed by individuals required with the making of this or have a personal stake in it profiting in light of the fact that this is essentially the most exceedingly bad film I have persisted in some time. From the opening airborne shots of model wide open and houses all the way to the finish. Landmine Goes Click Free Movie Download HD

Landmine Goes Click Free Movie Download HD  The entire film is permeated with crude composition and rank awful acting. It is unsurprising completely. I viewed the entire film with a dubious feeling of lack of engagement as I couldn’t interface on any passionate level with the characters. the lead awful fella was ridiculous and out and out irritating took after firmly behind by whatever remains of the cast. The main performing artist that may potentially have a profession on this show is Spencer Locke, the American young lady who in any event showed a touch of passionate profundity. Genuinely a low spending chaos of a film.A crime-and-revenge anecdote that might have made for a forceful 20-minute short doesn’t profit from being stretched to five times that length in “Landmine Goes Click.” This English-language Georgian feature starts out looking like yet another cautionary horror-thriller in which nubile young American trekkers. Landmine Goes Click Free Movie Download HD .

READ
Lazer 2015 Movie Mp4 Download

Download Landmine Goes Click in 720p BluRay (722 MB)↓

Torrent Download

709.38 MB

1.45 GB

Click the button below to download 📥

Download “Landmine Goes Click 2015”

Downloaded 0 times – 722 MB

https://jumiaweb.com/download/2100/?tmstv=1675242614

General
Unique ID :24397833342465307729328979482053409295 (0x125ADA0E55E322C922ED3B35D4D37A0F)
Complete name :Landmine_Goes_Click_BluRay_720p.mkv
Format :Matroska
Format version :Version 4
File size :676 MiB
Duration :1 h 39 min
Overall bit rate :951 kb/s
Movie name :Landmine Goes Click
Writing application :Lavf58.45.100
Writing library :Lavf58.45.100
ErrorDetectionType :Per level 1
READ
Helix 2015 Movie Mp4 Download
Video
ID :1
Format :AVC
Format/Info :Advanced Video Codec
Format profile :High@L4
Format settings :CABAC / 8 Ref Frames
Format settings, CABAC :Yes
Format settings, Reference frames :8 frames
Codec ID :V_MPEG4/ISO/AVC
Duration :1 h 39 min
Bit rate :12.0 Mb/s
Nominal bit rate :834 kb/s
Width :1 280 pixels
Height :720 pixels
Display aspect ratio :16:9
Frame rate mode :Variable
Frame rate :25.000 FPS
Color space :YUV
Chroma subsampling :4:2:0
Bit depth :8 bits
Scan type :Progressive
Bits/(Pixel*Frame) :0.520
Stream size :8.32 GiB
Writing library :x264 core 148
Encoding settings :cabac=1 / ref=8 / deblock=1:-1:-1 / analyse=0x3:0x133 / me=umh / subme=9 / psy=1 / psy_rd=1.00:0.15 / mixed_ref=1 / me_range=16 / chroma_me=1 / trellis=2 / 8x8dct=1 / cqm=0 / deadzone=21,11 / fast_pskip=1 / chroma_qp_offset=-3 / threads=22 / lookahead_threads=1 / sliced_threads=0 / nr=0 / decimate=1 / interlaced=0 / bluray_compat=0 / constrained_intra=0 / bframes=3 / b_pyramid=2 / b_adapt=1 / b_bias=0 / direct=3 / weightb=1 / open_gop=0 / weightp=2 / keyint=250 / keyint_min=25 / scenecut=40 / intra_refresh=0 / rc_lookahead=40 / rc=2pass / mbtree=1 / bitrate=834 / ratetol=1.0 / qcomp=0.60 / qpmin=0 / qpmax=69 / qpstep=4 / cplxblur=20.0 / qblur=0.5 / ip_ratio=1.40 / aq=1:1.00
Default :Yes
Forced :No
Audio
ID :2
Format :Opus
Codec ID :A_OPUS
Duration :1 h 39 min
Bit rate :448 kb/s
Channel(s) :2 channels
Channel layout :L R
Sampling rate :48.0 kHz
Frame rate :31.250 FPS (1536 SPF)
Bit depth :32 bits
Compression mode :Lossy
Stream size :318 MiB (47%)
Title :AC3 5.1
Writing library :Lavc58.91.100 libopus
Language :English
Default :Yes
Forced :No

Related Articles