MoviesVideos

Darkest Day 2015 Movie Mp4 Download

Click Here To Join Our Whatsapp Group To Receive Updates🔔

Rate this post

Darkest Day 2015Download Movie for mobile in best quality 3gp,Mkv, and mp4 720p, 1080p,2k and 4k format. Also stream Darkest Day on your mobile, tablets and ipads.

READ
Lazer 2015 Movie Mp4 Download

Darkest Day Free Movie Download HD . Dan awakens on a shoreline with no memory. He finds an unfilled city attacked by a savage infection. In the wake of get to know a little gathering of survivors it soon turns out to be clear the armed force is chasing him down, and the gathering is constrained on a risky voyage to get away. This film was entirely great. In the first place it begins off somewhat moderate, however as the characters and story creates it sort of pastes you to the screen. I would prescribe this film to fans who are into the post-whole-world destroying stories. I wouldn’t prescribed this film for individuals who effectively feel frustrated about the feeble and vulnerable. I Love the way these motion pictures turn out. Darkest Day Free Movie Download HD

Darkest Day Free Movie Download HD Begins off with a post-whole-world destroying view and you truly get the chance to perceive how individuals respond to it. This motion picture obviously demonstrates how the most normal individuals can get to be when put in these sort of circumstances. The motion picture does on numerous occasions escape hand, yet general it was all the while engaging. Awesome motion picture as I would like to think! I adore post-whole-world destroying films, so I unquestionably needed to look at it! It might be somewhat unpleasant around the edges, however great execution from the cast and had an extraordinary story! The exchange was adequate and had an incredible time viewing it!One of the match is killed very quickly subsequent to venturing on screen. While Dan and the two foragers are contending about whether or not to bring Dan with them to their home. Darkest Day Free Movie Download HD .

READ
Helix 2015 Movie Mp4 Download

Download Darkest Day in 720p BluRay (709 MB)↓

Click the button below to download 📥

Download “Darkest Day 2015”

Downloaded 1 time – 709 MB

https://jumiaweb.com/download/2094/?tmstv=1675242558

General
Complete name :Darkest_Day_BluRay_high.mp4
Format :MPEG-4
Format profile :Base Media
Codec ID :isom (isom/iso2/avc1/mp41)
File size :218 MiB
Duration :1 h 33 min
Overall bit rate :324 kb/s
Writing application :Lavf57.66.102
READ
Hardcore Henry 2016 Movie Mp4 Download
Video
ID :1
Format :AVC
Format/Info :Advanced Video Codec
Format profile :High@L2.1
Format settings :CABAC / 5 Ref Frames
Format settings, CABAC :Yes
Format settings, Reference frames :5 frames
Codec ID :avc1
Codec ID/Info :Advanced Video Coding
Duration :1 h 33 min
Bit rate :270 kb/s
Width :640 pixels
Height :268 pixels
Display aspect ratio :2.40:1
Frame rate mode :Constant
Frame rate :23.976 (24000/1001) FPS
Color space :YUV
Chroma subsampling :4:2:0
Bit depth :8 bits
Scan type :Progressive
Bits/(Pixel*Frame) :0.066
Stream size :181 MiB (83%)
Writing library :x264 core 148 r2 7599210
Encoding settings :cabac=1 / ref=5 / deblock=1:-1:-1 / analyse=0x3:0x113 / me=umh / subme=8 / psy=1 / psy_rd=1.00:0.15 / mixed_ref=1 / me_range=16 / chroma_me=1 / trellis=1 / 8x8dct=1 / cqm=0 / deadzone=21,11 / fast_pskip=1 / chroma_qp_offset=-3 / threads=8 / lookahead_threads=1 / sliced_threads=0 / nr=0 / decimate=1 / interlaced=0 / bluray_compat=0 / constrained_intra=0 / bframes=3 / b_pyramid=2 / b_adapt=2 / b_bias=0 / direct=3 / weightb=1 / open_gop=0 / weightp=2 / keyint=250 / keyint_min=23 / scenecut=40 / intra_refresh=0 / rc_lookahead=50 / rc=2pass / mbtree=1 / bitrate=270 / ratetol=1.0 / qcomp=0.60 / qpmin=0 / qpmax=69 / qpstep=4 / cplxblur=20.0 / qblur=0.5 / ip_ratio=1.40 / aq=1:1.00
Menus :3
Codec configuration box :avcC
Audio
ID :2
Format :AAC LC SBR
Format/Info :Advanced Audio Codec Low Complexity with Spectral Band Replication
Commercial name :HE-AAC
Format settings :NBC
Codec ID :mp4a-40-5
Duration :1 h 33 min
Bit rate mode :Constant
Bit rate :48.0 kb/s
Channel(s) :1 channel
Channel layout :C
Sampling rate :44.1 kHz
Frame rate :21.533 FPS (2048 SPF)
Compression mode :Lossy
Stream size :32.2 MiB (15%)
Language :English
Default :Yes
Alternate group :1
Menus :3

Related Articles