MoviesVideos

Andron 2016 Movie Mp4 Download

Click Here To Join Our Whatsapp Group To Receive Updates🔔

Rate this post

Andron 2016Download Movie for mobile in best quality 3gp,Mkv, and mp4 720p, 1080p,2k and 4k format. Also stream Andron on your mobile, tablets and ipads.

Runtime: 100 mins
Release Date: 03 Jun 2016
Starcast: Michelle Ryan, Alec Baldwin, Danny Glover
Director(s): Francesco Cinquemani
Genre: Action, Sci-Fi,
IMDb: http://www.imdb.com/title/tt4073890/

READ
Landmine Goes Click 2015 Movie Mp4 Download

Andron Free Movie Download HD . In the year 2154, a gathering of young fellows and ladies conscious in a dim claustrophobic labyrinth. They don’t recall their identity or how they stalled out operating at a profit Labyrinth of ANDRON. The gathering must figure out how to disentangle codes, comprehend the signs and beat the tests in this secretive and strange place. Out of need they battle to frame a cling to survive, while the outside world watches and bets on their fate.This film is SO awful, that it needs to get some sort of acknowledgment with no less than a short survey. In my life I’ve seen numerous, numerous awful films, yet trust me, even in the most pessimistic scenarios I would dependably discover motivation to complete it… Andron Free Movie Download HD

Andron Free Movie Download HD maybe a touch of interest, or just to perceive HOW low it could go, or by simply letting myself know that on the off chance that I had officially squandered one hour of my life, why not making it one and a half and check whether there was a remote shot it got (might I venture to state it?) ‘better’? Be that as it may, this one was recently excessively, I ceased it 40 minutes in and never turned back. For reasons unknown, I had not checked IMDb’s evaluations some time recently, but rather I positively did after, and it’s interesting to understand that I have now invested more energy in the film’s page on IMDb than viewing the motion picture itself. Yes, it’s THAT awful.In 2154, young men and women must navigate their way through a deadly maze as spectators wager on their fates. Andron Free Movie Download HD .IMDB

READ
Darkest Day 2015 Movie Mp4 Download

Download Andron in 720p BluRay (726 MB)↓

Click the button below to download 📥

Download “Andron 2016”

Downloaded 3 times – 725.58 MB

https://jumiaweb.com/download/2112/?tmstv=1675870899

General
Complete name :Andron_WEB-DL_high.mp4
Format :MPEG-4
Format profile :Base Media
Codec ID :isom (isom/iso2/avc1/mp41)
File size :222 MiB
Duration :1 h 36 min
Overall bit rate :323 kb/s
Movie name :Andron.2015.1080p.WEB-DL.DD5.1.H264-FGT
Writing application :Lavf57.20.100
READ
Lazer 2015 Movie Mp4 Download
Video
ID :1
Format :AVC
Format/Info :Advanced Video Codec
Format profile :High@L2.1
Format settings :CABAC / 5 Ref Frames
Format settings, CABAC :Yes
Format settings, Reference frames :5 frames
Codec ID :avc1
Codec ID/Info :Advanced Video Coding
Duration :1 h 36 min
Bit rate :270 kb/s
Width :640 pixels
Height :264 pixels
Display aspect ratio :2.40:1
Original display aspect ratio :2.40:1
Frame rate mode :Constant
Frame rate :23.976 (24000/1001) FPS
Color space :YUV
Chroma subsampling :4:2:0
Bit depth :8 bits
Scan type :Progressive
Bits/(Pixel*Frame) :0.067
Stream size :186 MiB (84%)
Title :Andron.2015.1080p.WEB-DL.DD5.1.H264-FGT
Writing library :x264 core 148 r2 7599210
Encoding settings :cabac=1 / ref=5 / deblock=1:-1:-1 / analyse=0x3:0x113 / me=umh / subme=8 / psy=1 / psy_rd=1.00:0.15 / mixed_ref=1 / me_range=16 / chroma_me=1 / trellis=1 / 8x8dct=1 / cqm=0 / deadzone=21,11 / fast_pskip=1 / chroma_qp_offset=-3 / threads=8 / lookahead_threads=1 / sliced_threads=0 / nr=0 / decimate=1 / interlaced=0 / bluray_compat=0 / constrained_intra=0 / bframes=3 / b_pyramid=2 / b_adapt=2 / b_bias=0 / direct=3 / weightb=1 / open_gop=0 / weightp=2 / keyint=250 / keyint_min=23 / scenecut=40 / intra_refresh=0 / rc_lookahead=50 / rc=2pass / mbtree=1 / bitrate=270 / ratetol=1.0 / qcomp=0.60 / qpmin=0 / qpmax=69 / qpstep=4 / cplxblur=20.0 / qblur=0.5 / ip_ratio=1.40 / aq=1:1.00
Language :English
Menus :3
Codec configuration box :avcC
Audio
ID :2
Format :AAC LC SBR
Format/Info :Advanced Audio Codec Low Complexity with Spectral Band Replication
Commercial name :HE-AAC
Format settings :NBC
Codec ID :mp4a-40-5
Duration :1 h 36 min
Duration_LastFrame :-23 ms
Bit rate mode :Constant
Bit rate :48.0 kb/s
Channel(s) :1 channel
Channel layout :C
Sampling rate :44.1 kHz
Frame rate :21.533 FPS (2048 SPF)
Compression mode :Lossy
Stream size :33.1 MiB (15%)
Title :Andron.2015.1080p.WEB-DL.DD5.1.H264-FGT
Language :English
Default :Yes
Alternate group :1
Menus :3

Related Articles